查看单个帖子
hbzyy
 
hbzyy 的头像
高级会员
 
资 料:
注册日期: Jun 2004
帖子: 567 声望值: 3
精华: 0,解答: 1
#6 旧 2019-05-11, 19:18:40 默认
hbzyy 当前离线  

引用:
作者: tomscat 查看帖子
ffmpeg -i 视频文件名 -f image2 -r 1/120 %3d.jpg


你好。继续请教一下。
1、原始视频太大,缩小一点,需要的处理时间长不长?
2、原始是IOS录制的视频,旋转怎么处理?有的是旋转270度
3、提取音频成单独MP3文件,怎么写命令?

ffmpeg中看到的信息

Stream #0:0(und): Audio: aac (LC) (mp4a / 0x6134706D), 44100 Hz, stereo, fltp, 101 kb/s (default)
Metadata:
creation_time : 2019-05-08T01:31:58.000000Z
handler_name : Core Media Audio
Stream #0:1(und): Video: h264 (High) (avc1 / 0x31637661), yuvj420p(pc, smpte170m/bt709/unknown), 1440x1920, 7050 kb/s, 59.10 fps, 60 tbr, 600 tbn, 1200 tbc (default)
回复时引用此帖